logo

Exodus Gods And Kings 2014 720p HDCAM ENG FIRST x264 Pimp4003

  • Category Movies
  • Type Divx/Xvid
  • Language English
  • Total size 2.5 GB
  • Uploaded By pimp4003
  • Downloads 13232
  • Last checked 5 months ago
  • Date uploaded 3 years ago
  • Seeders 0
  • Leechers 1

Exodus: Gods and Kings

ActionAdventureDrama

The defiant leader Moses rises up against the Egyptian Pharaoh Ramses, setting 600,000 slaves on a monumental journey of escape from Egypt and its terrifying cycle of deadly plagues.

Infohash : 9981C1F111EB1DAF710B8D6830DAA5897871EA35

Download Exodus Gods And Kings 2014 720p HDCAM ENG FIRST x264 Pimp4003 Torrent

PIMP THE ONE AND ONLY PIMPSTER.....PRESENTS



Download Exodus Gods And Kings 2014 720p HDCAM ENG FIRST x264 Pimp4003 Torrent

http://twitter.com/PIMP4003DOTNET

http://instagram.com/pimp4003torrents

Download Exodus Gods And Kings 2014 720p HDCAM ENG FIRST x264 Pimp4003 Torrent

Exodus Gods And Kings 2014 720p HDCAM ENG FIRST x264 Pimp4003

http://www.imdb.com/title/tt1528100/

The defiant leader Moses rises up against the Egyptian Pharaoh Ramses, setting 600,000 slaves on a monumental journey of escape from Egypt and its terrifying cycle of deadly plagues.

Director: Ridley Scott
Writers: Adam Cooper, Bill Collage, 2 more credits »
Stars: Christian Bale, Joel Edgerton, Ben Kingsley | See full cast and crew »

Video
ID                                       : 1
Format                                   : MPEG-4 Visual
Format profile                           : [email protected]
Format settings, BVOP                    : No
Format settings, QPel                    : No
Format settings, GMC                     : No warppoints
Format settings, Matrix                  : Default (H.263)
Codec ID                                 : 20
Duration                                 : 2h 20mn
Bit rate                                 : 2 392 Kbps
Width                                    : 1 280 pixels
Height                                   : 536 pixels
Display aspect ratio                     : 2.40:1
Frame rate mode                          : Variable
Frame rate                               : 59.940 fps
Minimum frame rate                       : 59.916 fps
Maximum frame rate                       : 60.157 fps
Color space                              : YUV
Chroma subsampling                       : 4:2:0
Bit depth                                : 8 bits
Scan type                                : Progressive
Compression mode                         : Lossy
Bits/(Pixel*Frame)                       : 0.058
Stream size                              : 2.34 GiB (95%)
Writing library                          : ZJMedia MPEG Encoder

Audio
ID                                       : 2
Format                                   : AAC
Format/Info                              : Advanced Audio Codec
Format profile                           : LC
Codec ID                                 : 40
Duration                                 : 2h 20mn
Bit rate mode                            : Variable
Bit rate                                 : 128 Kbps
Channel(s)                               : 2 channels
Channel positions                        : Front: L R
Sampling rate                            : 48.0 KHz
Compression mode                         : Lossy
Stream size                              : 128 MiB (5%)

Download Exodus Gods And Kings 2014 720p HDCAM ENG FIRST x264 Pimp4003 Torrent
Download Exodus Gods And Kings 2014 720p HDCAM ENG FIRST x264 Pimp4003 Torrent
Download Exodus Gods And Kings 2014 720p HDCAM ENG FIRST x264 Pimp4003 Torrent
Download Exodus Gods And Kings 2014 720p HDCAM ENG FIRST x264 Pimp4003 Torrent

Files:

  • [WWW.PIMP4003.NET] Exodus Gods And Kings 2014 720p HDCAM ENG FIRST x264 Pimp4003.mp4 (2.5 GB)
  • Torrent Downloaded From Pimp4003.net.txt (0.1 KB)

There are currently no comments. Feel free to leave one :)

Code:

  • udp://inferno.demonoid.ph:3389/announce
  • udp://open.demonii.com:1337/announce
  • http://tracker1.wasabii.com.tw:6969/announce
  • udp://open.demonii.com:1337/announce
  • udp://tracker.istole.it:80/announce
  • udp://tracker.publicbt.com:80/announce
  • udp://tracker.openbittorrent.com:80/announce
  • udp://9.rarbg.com:2710/announce
X
Attention! Use a VPN when Accessing Free Content !
Your IP address is - Country:
Your Internet provider Tracks your Activity! Hide your IP ADDRESS with a VPN!
Bonus: Get Lag-Free Streams & No popups with any VPN Purchased !

Download Here
Sitemap