logo

Paddington 2014 720p HDCAM FIRST ENG x264 Pimp4003

  • Category Movies
  • Type Divx/Xvid
  • Language English
  • Total size 1.5 GB
  • Uploaded By pimp4003
  • Downloads 1942
  • Last checked 5 months ago
  • Date uploaded 3 years ago
  • Seeders 0
  • Leechers 0

Paddington

ComedyFamily

A young Peruvian bear with a passion for all things British travels to London in search of a home. Finding himself lost and alone at Paddington Station, he begins to realize that city life is not all he had imagined - until he meets the kindly Brown family, who read the label around his neck ('Please look after this bear. Thank you.') and offer him a temporary haven. It looks as though his luck has changed until this rarest of bears catches the eye of a museum taxidermist...

Infohash : 74C9302099A7D1D635AF9E207B9F37284B9845CE

Download Paddington 2014 720p HDCAM FIRST ENG x264 Pimp4003 Torrent

PIMP THE ONE AND ONLY PIMPSTER.....PRESENTS



Download Paddington 2014 720p HDCAM FIRST ENG x264 Pimp4003 Torrent

http://twitter.com/PIMP4003DOTNET

http://instagram.com/pimp4003torrents

Download Paddington 2014 720p HDCAM FIRST ENG x264 Pimp4003 Torrent

Paddington 2014 720p HDCAM FIRST ENG x264 Pimp4003

http://www.imdb.com/title/tt1109624/

A young English boy befriends a talking bear he finds at a London train station. A live-action feature based on the series of popular children's books by Michael Bond.

Video
ID                                       : 1
Format                                   : MPEG-4 Visual
Format profile                           : Si[email protected]
Format settings, BVOP                    : No
Format settings, QPel                    : No
Format settings, GMC                     : No warppoints
Format settings, Matrix                  : Default (H.263)
Codec ID                                 : 20
Duration                                 : 1h 27mn
Bit rate                                 : 2 393 Kbps
Width                                    : 1 280 pixels
Height                                   : 536 pixels
Display aspect ratio                     : 2.40:1
Frame rate mode                          : Variable
Frame rate                               : 59.940 fps
Minimum frame rate                       : 59.916 fps
Maximum frame rate                       : 60.157 fps
Color space                              : YUV
Chroma subsampling                       : 4:2:0
Bit depth                                : 8 bits
Scan type                                : Progressive
Compression mode                         : Lossy
Bits/(Pixel*Frame)                       : 0.058
Stream size                              : 1.47 GiB (95%)
Writing library                          : ZJMedia MPEG Encoder

Audio
ID                                       : 2
Format                                   : AAC
Format/Info                              : Advanced Audio Codec
Format profile                           : LC
Codec ID                                 : 40
Duration                                 : 1h 27mn
Bit rate mode                            : Variable
Bit rate                                 : 124 Kbps
Channel(s)                               : 2 channels
Channel positions                        : Front: L R
Sampling rate                            : 48.0 KHz
Compression mode                         : Lossy
Stream size                              : 77.5 MiB (5%)

Download Paddington 2014 720p HDCAM FIRST ENG x264 Pimp4003 Torrent
Download Paddington 2014 720p HDCAM FIRST ENG x264 Pimp4003 Torrent
Download Paddington 2014 720p HDCAM FIRST ENG x264 Pimp4003 Torrent

Files:

  • Paddington 2014 720p HDCAM FIRST ENG x264 Pimp4003.mp4 (1.5 GB)

Comments

Code:

  • udp://inferno.demonoid.ph:3389/announce
  • udp://open.demonii.com:1337/announce
  • http://tracker1.wasabii.com.tw:6969/announce
  • udp://open.demonii.com:1337/announce
  • udp://tracker.istole.it:80/announce
  • udp://tracker.publicbt.com:80/announce
  • udp://tracker.openbittorrent.com:80/announce
  • udp://9.rarbg.com:2710/announce
X
Attention! Use a VPN when Accessing Free Content !
Your IP address is - Country:
Your Internet provider Tracks your Activity! Hide your IP ADDRESS with a VPN!
Bonus: Get Lag-Free Streams & No popups with any VPN Purchased !

Download Here
Sitemap